23
сен
2017

Остров везения (2013)

Формат: BDRip-AVC, MKV, H.264, AC3
Режиссер: Кирилл Козлов
Жанр: комедия, приключения
Продолжительность: 01:22:25
Год выпуска: 2013

В ролях: Роман Юнусов, Светлана Ходченкова, Агния Дитковските, Анна Хилькевич, Алексей Чумаков, Татьяна Орлова, Дарья Астафьева, Юлия Гришина, Александр Сазонов, Мария Кравцова

Описание: Тихоокеанский лайнер. Полуобнаженные красотки, участвующие в конкурсе красоты. Шампанское и голубой океан... О таком бывшая звезда телевидения, а ныне ведущий дешевых свадеб, даже и не мечтал. Однако круиз мечты неожиданно прервется цепью невероятных событий. И наш герой окажется на необитаемом острове в окружении трех финалисток конкурса: принципиальной стервы (Агния Дитковските), паникерши (Светлана Ходченкова) и классической блондинки (Анна Хилькевич). Что делать? Ведь лишившись возможности выиграть вожделенную корону, девушки его наверняка порвут на кусочки… Значит, надо продолжать конкурс! Сделав вид, что так задумано, Роман начинает представление. Он убеждает девиц, что на острове понатыканы скрытые камеры и микрофоны, шоу выводится в эфир одного из главных каналов, и вся страна теперь следит за финалом конкурса красоты! И всего-то нужно – пройти пару испытаний под прицелом вон того ближайшего кокоса… то есть камеры. И пока девушки включились в соревнования, наш герой ищет путь спасения с острова…

Рейтинг и доп. информация:


Видео: 1024x436 (2.35:1), 24 fps, AVC MPEG-4 (x264), High@L4.1 ~ 3109 kbps , 0.290 bit/pixel
Аудио: 48 kHz, AC3 Dolby Digital, 3/2 (L,C,R,l,r) + LFE ch, ~448.00 kbps avg [лицензия]
x264
x264 [info]: frame I:1224 Avg QP:17.62 size: 90690
x264 [info]: frame P:31868 Avg QP:20.17 size: 28606
x264 [info]: frame B:85608 Avg QP:21.91 size: 10473
x264 [info]: consecutive B-frames: 4.7% 5.7% 13.7% 32.0% 17.9% 22.0% 2.0% 0.6% 0.7% 0.1% 0.1% 0.1% 0.4%
MediaInfo
Format : Matroska
Format version : Version 4 / Version 2
File size : 2.05 GiB
Duration : 1h 22mn
Overall bit rate : 3 554 Kbps
Encoded date : UTC 2014-01-15 18:14:25
Writing application : mkvmerge v6.1.0 ('Old Devil') built on Mar 4 2013 09:10:42
Writing library : libebml v1.3.0 + libmatroska v1.4.0

Video
ID : 1
Format : AVC
Format/Info : Advanced Video Codec
Format profile : High@L4.1
Format settings, CABAC : Yes
Format settings, ReFrames : 9 frames
Codec ID : V_MPEG4/ISO/AVC
Duration : 1h 22mn
Bit rate : 3 109 Kbps
Width : 1 024 pixels
Height : 436 pixels
Display aspect ratio : 2.35:1
Frame rate : 24.000 fps
Color space : YUV
Chroma subsampling : 4:2:0
Bit depth : 8 bits
Scan type : Progressive
Bits/(Pixel*Frame) : 0.290
Stream size : 1.75 GiB (85%)
Writing library : x264 core 130 r2273 b3065e6
Encoding settings : cabac=1 / ref=9 / deblock=1:-2:-2 / analyse=0x3:0x133 / me=umh / subme=11 / psy=1 / psy_rd=1.00:0.20 / mixed_ref=1 / me_range=48 / chroma_me=1 / trellis=2 / 8x8dct=1 / cqm=0 / deadzone=21,11 / fast_pskip=0 / chroma_qp_offset=-3 / threads=6 / lookahead_threads=1 / sliced_threads=0 / nr=0 / decimate=0 / interlaced=0 / bluray_compat=0 / constrained_intra=0 / bframes=12 / b_pyramid=2 / b_adapt=2 / b_bias=0 / direct=3 / weightb=1 / open_gop=0 / weightp=2 / keyint=240 / keyint_min=24 / scenecut=40 / intra_refresh=0 / rc=2pass / mbtree=0 / bitrate=3109 / ratetol=1.0 / qcomp=0.60 / qpmin=0 / qpmax=69 / qpstep=4 / cplxblur=20.0 / qblur=0.5 / ip_ratio=1.40 / pb_ratio=1.30 / aq=1:1.00
Language : English

Audio
ID : 2
Format : AC-3
Format/Info : Audio Coding 3
Mode extension : CM (complete main)
Codec ID : A_AC3
Duration : 1h 22mn
Bit rate mode : Constant
Bit rate : 448 Kbps
Channel(s) : 6 channels
Channel positions : Front: L C R, Side: L R, LFE
Sampling rate : 48.0 KHz
Bit depth : 16 bits
Compression mode : Lossy
Stream size : 264 MiB (13%)
Language : Russian

Menu
00:00:00.000 : :Chapter 01
00:09:35.458 : :Chapter 02
00:20:10.041 : :Chapter 03
00:28:56.125 : :Chapter 04
00:41:51.583 : :Chapter 05
00:51:06.625 : :Chapter 06
00:59:31.291 : :Chapter 07
01:08:06.375 : :Chapter 08
Видео / Наше кино / Комедии
СКАЧАТЬ БЕСПЛАТНО  [2.0 GB]